Details for this torrent 


Type SE
Warning! Use a VPN When Downloading Torrents!
Your ISP is tracking your torrent activity Including your IP Address and your Location!
We strongly recommend using ExpressVPN to anonymize your torrenting. 30 Day Money Back Guarantee!
HIDE MY IP
Lost S01E06 - AVM
Type:
Video > TV shows
Files:
2
Size:
141.64 MiB (148524796 Bytes)
Spoken language(s):
English
Tag(s):
Lost Mobile
Uploaded:
2009-07-30 21:20:50 GMT
By:
SysProfile
Seeders:
0
Leechers:
1
Comments
0  

Info Hash:
E1187BA23719B05F4D261AFF141E97F3DA478433







(Problems with magnets links are fixed by upgrading your torrent client!)
AVIDMobile - //www.avidmobile.com.ar (Mobile media)VideoID : 1Format : MPEG-4 VisualFormat profile : [email protected]Format settings, BVOP : NoFormat settings, QPel : NoFormat settings, GMC : No warppointsFormat settings, Matrix : Default (H.263)Codec ID : 20Duration : 42mn 47sBit rate mode : VariableBit rate : 495 KbpsMaximum bit rate : 2 616 KbpsWidth : 320 pixelsHeight : 240 pixelsDisplay aspect ratio : 4/3Frame rate mode : VariableFrame rate : 23.976 fpsMinimum frame rate : 23.974 fpsMaximum frame rate : 23.981 fpsResolution : 24 bitsColorimetry : 4:2:0Scan type : ProgressiveBits/(Pixel*Frame) : 0.269Stream size : 151 MiB (88%)AudioID : 2Format : AACFormat/Info : Advanced Audio CodecFormat version : Version 4Format profile : LCFormat settings, SBR : NoCodec ID : 40Duration : 42mn 47sBit rate mode : VariableBit rate : 66.15 KbpsMaximum bit rate : 136 KbpsChannel(s) : 2 channelsChannel positions : L RSampling rate : 22.05 KHzResolution : 16 bitsStream size : 20.1 MiB (12%)




Type SE
Warning! Use a VPN When Downloading Torrents!
Your ISP is tracking your torrent activity Including your IP Address and your Location!
We strongly recommend using ExpressVPN to anonymize your torrenting. 30 Day Money Back Guarantee!
HIDE MY IP

Bitcoin (BTC Only) : 1z8Tep4BNS79W3kYH8CHA8tWj6nuHYcCM
TRON (TRX Only) : 0x705c127743410c23f69e3f56ac0a654879181c41

The Pirate bay proxy List
Pirate bay proxy list